verakosmetik.com - Darmowe polskie torrenty

Witaj drogi Towarzyszu!, jeżeli widzisz ten dymek to znaczy że nie jesteś zarejestrowany/zalogowany. Kliknij by się zarejestrować . Rejestracja zajmie mniej niż 30 sekund, a dzięki niej zyskasz możliwość pobierania, komentowania oraz dodawania torrentów !
User:  Hasło:     






Kategorie


Najczęściej pobierane w Styczniu


Detale Torrenta


Pies Andaluzyjski -  Un Chien Andalou *1929* [TVRip.x264-Złośnicaa] [Film Niemy]

S: 1L: 1P: 59
Dodał: Złośnicaa Tracker:
Kondycja:Dodane:2017-04-17 16:06:01
Kategoria:Filmy X264 / H264  »  KrótkometrażowyRozmiar:128.05 MB
Język:Nie określono  Nie określonoPobrali:POBRALI PLIK
Obserwuj:OBSERWUJ TORRENTAStaty:UAKTUALNIJ TRACKER
Download: Pobierz TorrentRaport:RAPORTUJ TORRENTA




produkcja: Francja
premiera: 6 czerwca 1929 - Świat
gatunek: Surrealistyczny, Krótkometrażowy, Niemy
reżyseria: Luis Buñuel
scenariusz: Salvador Dali



Niespełna 20-minutowy film, który stał się początkiem kina surrealistycznego. Obraz składa się z kilku luźnych scen, które nie pozostają ze sobą w żadnym konkretnym związku. Jedyną rzeczą, która je łączy jest chęć zaszokowania widza. Oglądamy zatem człowieka trzymającego na sznurku obciętą dłoń, zbliżenie rozcinanego brzytwą oka, czy dwa fortepiany, wewnątrz których znajdują się rozkładające ciała osłów.



Pierre Batcheff ... Mężczyzna
Simone Mareuil ... Młoda dziewczyna
Luis Buñuel ... Mężczyzna w prologu
Salvador Dal ... Seminarzysta



Video
ID : 1
Format : AVC
Format/INFO : Advanced Video Codec
Format profile : High@L3.1
Format settings, CABAC : Yes
Format settings, ReFrames : 4 frames
Codec ID : avc1
Codec ID/INFO : Advanced Video Coding
Duration : 15 min 51 s
Bit rate : 950 kb/s
Width : 768 pixels
Height : 576 pixels
Display aspect ratio : 4:3
Frame rate mode : Constant
Frame rate : 30.000 FPS
Color space : YUV
Chroma subsampling : 4:2:0
Bit depth : 8 bits
Scan type : Progressive
Bits/(Pixel*Frame) : 0.072
Stream size : 108 MiB
Writing library : x264 core 118

Audio
ID : 2
Format : AAC
Format/INFO : Advanced Audio Codec
Format profile : LC
Codec ID : 40
Duration : 15 min 51 s
Duration_LastFrame : -11 ms
Bit rate mode : Variable
Bit rate : 165 kb/s
Maximum bit rate : 256 kb/s
Channel(s) : 2 channels
Channel positions : Front: L R
Sampling rate : 48.0 kHz
Frame rate : 46.875 FPS (1024 spf)
Compression mode : Lossy
Stream size : 18.8 MiB
Default : Yes
Alternate group : 1













====================================================

PODOBNE TORRENTY
Pies andaluzyjski - Un Chien andalou *1929* [DVDRip AVC] [AC3] [Napisy PL] Wielki Napad Na Kolej - The Great K & A Train Robbery *1926* [DVDRip.x264-Złośnicaa] [Film Niemy-Napisy PL] Atlantis (1913) [XviD, AC3] [Film Niemy] PLemię / PLemya (2014) [WEB-DL.XViD-OzW] [Film Niemy] PLemię - PLemya *2014* [LQ] [WEB-DL] [XviD-LLN] [Film niemy] [676kowal] PLemię - PLemya *2014* [WEB-DL] [XViD-OzW] [Film Niemy] [676kowal]
Szczegóły torrenta
TRACKER
Tracker Podstawowy: http://tracker.verakosmetik.com:8089/announce

Multitrackery:

http://tracker.verakosmetik.com:8089/announce
http://tracker.vanitycore.co:6969/announce
http://tracker.opentrackr.org:1337/announce
http://tracker.skyts.net:6969/announce
http://ipv4.tracker.harry.lu:80/announce
udp://tracker.openbittorrent.com:80/announce
http://mgtracker.org:2710/announce
http://tracker.tfile.me/announce
udp://tracker.opentrackr.org:1337/announce
udp://tracker.leechers-paradise.org:6969/announce
udp://9.rarbg.me:2710/announce

UAKTUALNIENIE
27/04/2017 10:35:39 (Jeśeli nie widac seeda kliknij na [uaktualnij] by odswieżyć statystyki).
[Lub sprawdź programem do pobierania torrentów, ponieważ niektóre trackery nie wyświetlają statystyk]
5 pliki
 
KOMENTARZE


Brak komentarzy...

DODAJ KOMENTARZ

Zaloguj się aby dodawać komentarze !!!



Wstecz








WRÓĆ NA GÓRĘ What's WRONG? | Fluke Clamp-On | Michael Louis Albo | Countdown