verakosmetik.com - Darmowe polskie torrenty

Witaj drogi Towarzyszu!, jeżeli widzisz ten dymek to znaczy że nie jesteś zarejestrowany/zalogowany. Kliknij by się zarejestrować . Rejestracja zajmie mniej niż 30 sekund, a dzięki niej zyskasz możliwość pobierania, komentowania oraz dodawania torrentów !
User:  Hasło:     






Kategorie


Najczęściej pobierane w Styczniu


Detale Torrenta


Samsung Demo Disc 3D *2011*(48FPS)[mini-HD.1080p.3D.Half.Over-Under.AC3.BluRay.x264-LEON 345]

S: 18L: 4P: 93
Dodał: ~$Leon345~ Tracker:
Kondycja:Dodane:2015-10-01 18:35:11
Kategoria:Filmy 3D / SBS  »  PozostałeRozmiar:3.96 GB
Język:Nie określono  Nie określonoPobrali:POBRALI PLIK
Obserwuj:OBSERWUJ TORRENTAStaty:UAKTUALNIJ TRACKER
Download: Pobierz TorrentRaport:RAPORTUJ TORRENTA
SAMSUNG Demo 2011 3D Half.Over-Under.1080p.BDRip(48FPS) Leon 345
==============================================
!!!!!!!!!!!!!48 FPS !!!!!!!!!!!!!!!!!!!!!!!!!
==============================================
Film w wersji 3D Over-Under
Do odtworzenia filmu WYMAGANY odpowiedni sprzęt (TV 3D).
-----------------------------------------------------

Kopia mini-HD 1080p = tylko 3,95 GB

Rok: 2011
Gatunek: Demonstracja

Zawartość płyty:
==========

Lifestyle:
-----------
Golf (4:03)
Balloon Festival (3:10)
Jazz Festival (2:53)

Nature:
------------
Canadian Scenery (3:37)
Niagara Falls (3:41)
Galapagos (5:05)
Grand Canyon (2:39)

Music:
------------
BoA – Hurricane Venus (3:25)
Girls Generation – Genie (3:37)
SM Town Concert Highlights (2:20)

Movie:
------------
Megamind A (Trailer) (2:29)
Megamind B (Trailer) (2:33)
Shrek (Trailer) (1:18)

General

Format : Matroska
Format version : Version 4 / Version 2
File size : 3.96 GiB
Duration : 41mn 1s
Overall bit rate : 13.8 Mbps
Movie name : Samsung.Demo.Disc.2011.3D.HOU.BDRip(48FPS)Leon345
Encoded date : UTC 2015-10-01 15:52:58
Writing application : mkvmerge v8.3.0 ('Over the Horizon') 64bit
Writing library : libebml v1.3.1 + libmatroska v1.4.2

Video
ID : 1
Format : AVC
Format/INFO : Advanced Video Codec
Format profile : High@L4.1
Format settings, CABAC : Yes
Format settings, ReFrames : 4 frames
Codec ID : V_MPEG4/ISO/AVC
Duration : 41mn 1s
Bit rate : 13.5 Mbps
Width : 1 920 pixels
Height : 1 080 pixels
Display aspect ratio : 16:9
Frame rate mode : Constant
Frame rate : 47.923 fps
Original frame rate : 47.952 fps
Color space : YUV
Chroma subsampling : 4:2:0
Bit depth : 8 bits
Scan type : Progressive
Stream size : 3.80 GiB (96%)
Writing library : x264 core 146 r2538 121396c
Encoding settings : cabac=1 / ref=4 / rc=2pass
Default : Yes
Forced : No

Audio
ID : 2
Format : AC-3
Format/INFO : Audio Coding 3
Mode extension : CM (complete main)
Format settings, Endianness : Big
Codec ID : A_AC3
Duration : 41mn 1s
Bit rate mode : Constant
Bit rate : 256 Kbps
Channel(s) : 2 channels
Channel positions : Front: L R
Sampling rate : 48.0 KHz
Bit depth : 16 bits
Compression mode : Lossy
Stream size : 75.1 MiB (2%)
Language : English
Default : Yes
Forced : No

Source :
A/V- Samsung Demo Disc 3D 2011 BD3D

===============================================================
UWAGA!!!!!!Tak dla jasności gdyby komuś wpadło coś "dziwnego" do głowy.
Wstawiam na prośbę.48 FPS uzyskane metodą interpolacji klatek(dodaniem
klatek pośrednich)znaczy że orginalnie tak nie było !!!!!!!!!!
Teraz wiecie :) !!!!!!!!!!!!Kto chce zapraszam.
===============================================================

====================================================

PODOBNE TORRENTY
Samsung Demo Disc 3D *2010*(48FPS)[mini-HD.1080p.3D.Half.Over-Under.AC3.BluRay.x264-LEON 345] LG Demo 3D (march 2012)(48FPS)[mini-HD.1080p.3D.Half.Over-Under.AC3.BluRay.x264-LEON 345] Kapitan Ameryka: Pierwsze starcie 3D - Captain America: The First AvENGer *2011*(48FPS)[1080p.3D.Half.Over-Under.DTS-HD MA.7.1.AC3.BluRay.x264-LEON 345] [Lektor i napisy PL] San Andreas 3D*2015*(48FPS)[1080p.3D.Half.Over-Under.DTS 5.1.BluRay.x264-LEON 345] [Lektor i napisy PL] This Is It - Thriller 3D *2009* (clip) +wersja 48FPS [1080p.3D.Half.Over-Under.AC3.BluRay.x264-LEON 345] Jurassic World 3D *2015* (48FPS) [1080p.3D.Half.Over-Under.DTS-HD MA.7.1.AC3.BluRay.x264-LEON 345] [Lektor i napisy PL]
Szczegóły torrenta
TRACKER
Tracker Podstawowy: http://tracker.torrenty.org:6969/announce

Multitrackery:

http://tracker.torrenty.org:6969/announce
http://tracker.verakosmetik.com:8089/announce
http://exodus.desync.com:6969/announce
http://94.228.192.98/announce
udp://9.rarbg.com:2710/announce
udp://tracker.prq.to:80/announce
udp://tracker.openbittorrent.com:80/announce

UAKTUALNIENIE
19/01/2019 14:22:06 (Jeśeli nie widac seeda kliknij na [uaktualnij] by odswieżyć statystyki).
[Lub sprawdź programem do pobierania torrentów, ponieważ niektóre trackery nie wyświetlają statystyk]
2 pliki
 
KOMENTARZE


lgrom08/12/2018 12.59.12
Proszę o sseda.
Status użytkownika:   08/12/2018 12.59.12  TOP

DODAJ KOMENTARZ

Zaloguj się aby dodawać komentarze !!!



Wstecz








WRÓĆ NA GÓRĘ Download | the team | The Vampire Diaries