verakosmetik.com - Darmowe polskie torrenty

Witaj drogi Towarzyszu!, jeżeli widzisz ten dymek to znaczy że nie jesteś zarejestrowany/zalogowany. Kliknij by się zarejestrować . Rejestracja zajmie mniej niż 30 sekund, a dzięki niej zyskasz możliwość pobierania, komentowania oraz dodawania torrentów !
User:  Hasło:     






Kategorie


Najczęściej pobierane w Styczniu


Detale Torrenta


This Is It - Thriller 3D *2009* (clip) +wersja 48FPS [1080p.3D.Half.Over-Under.AC3.BluRay.x264-LEON 345]

S: 57L: 11P: 61
Dodał: ~$Leon345~ Tracker:
Kondycja:Dodane:2015-10-11 19:08:41
Kategoria:Filmy 3D / SBS  »  PozostałeRozmiar:1.15 GB
Język:Wersja ENG  Wersja ENGPobrali:POBRALI PLIK
Obserwuj:OBSERWUJ TORRENTAStaty:UAKTUALNIJ TRACKER
Download: Pobierz TorrentRaport:RAPORTUJ TORRENTA
This Is It - Thriller *2009* (clip)3D.Half.Over-Under.1080p.BDRip Leon 345
==================================================
Film w wersji 3D Over-Under
Do odtworzenia filmu WYMAGANY odpowiedni sprzęt (TV 3D).
-----------------------------------------------------

POLECAM WSZYSTKIM !!! WARTO ZOBACZYĆ !!!
Clip z płyty Michael Jackson This Is It 3D *2009*
plus to samo w wersji 48 FPS.Wiem że już było ale może nie każdy
widział a Ci co chcą efektów 3D napewno sie nie rozczarują.

General

Format : Matroska
Format version : Version 4 / Version 2
File size : 582 MiB
Duration : 3mn 53s
Overall bit rate : 20.9 Mbps
Movie name : THIS_IS_IT_3D.Title4.Bluray3DRip by Leon 345
Encoded date : UTC 2015-10-11 16:35:41
Writing application : mkvmerge v8.3.0 ('Over the Horizon') 64bit
Writing library : libebml v1.3.1 + libmatroska v1.4.2

Video
ID : 1
Format : AVC
Format/INFO : Advanced Video Codec
Format profile : High@L4.1
Format settings, CABAC : Yes
Format settings, ReFrames : 2 frames
Codec ID : V_MPEG4/ISO/AVC
Duration : 3mn 53s
Bit rate : 20.0 Mbps
Width : 1 920 pixels
Height : 1 080 pixels
Display aspect ratio : 16:9
Frame rate mode : Constant
Frame rate : 23.976 fps
Color space : YUV
Chroma subsampling : 4:2:0
Bit depth : 8 bits
Scan type : Progressive
Bits/(Pixel*Frame) : 0.399
Stream size : 553 MiB (95%)
Writing library : x264 core
Default : Yes
Forced : No

Audio
ID : 2
Format : AC-3
Format/INFO : Audio Coding 3
Mode extension : CM (complete main)
Format settings, Endianness : Big
Codec ID : A_AC3
Duration : 3mn 53s
Bit rate mode : Constant
Bit rate : 640 Kbps
Channel(s) : 6 channels
Channel positions : Front: L C R, Side: L R, LFE
Sampling rate : 48.0 KHz
Bit depth : 16 bits
Compression mode : Lossy
Stream size : 17.8 MiB (3%)
Language : English
Default : Yes
Forced : No

Menu
00:00:00.000 : en:(01)00:00:00:000
00:03:54.442 : en:(02)00:03:54:442



==========================
!!!!!WERSJA 48 FPS!!!!!!
==========================

General

Format : Matroska
Format version : Version 4 / Version 2
File size : 590 MiB
Duration : 3mn 53s
Overall bit rate : 21.2 Mbps
Movie name : THIS_IS_IT_3D[Thriller]HOU.BDRip(48FPS)Leon345
Encoded date : UTC 2015-10-02 11:56:50
Writing application : mkvmerge v8.3.0 ('Over the Horizon') 64bit
Writing library : libebml v1.3.1 + libmatroska v1.4.2

Video
ID : 1
Format : AVC
Format/INFO : Advanced Video Codec
Format profile : High@L4.2
Format settings, CABAC : Yes
Format settings, ReFrames : 4 frames
Codec ID : V_MPEG4/ISO/AVC
Duration : 3mn 53s
Bit rate : 21.0 Mbps
Width : 1 920 pixels
Height : 1 080 pixels
Display aspect ratio : 16:9
Frame rate mode : Constant
Frame rate : 47.923 fps
Original frame rate : 47.952 fps
Color space : YUV
Chroma subsampling : 4:2:0
Bit depth : 8 bits
Scan type : Progressive
Bits/(Pixel*Frame) : 0.212
Stream size : 560 MiB (95%)
Writing library : x264 core xz2390gh88**$$
Encoding settings : cabac=1 / ref=4 / rc=2pass
Default : Yes
Forced : No

Audio
ID : 2
Format : AC-3
Format/INFO : Audio Coding 3
Mode extension : CM (complete main)
Format settings, Endianness : Big
Codec ID : A_AC3
Duration : 3mn 53s
Bit rate mode : Constant
Bit rate : 640 Kbps
Channel(s) : 6 channels
Channel positions : Front: L C R, Side: L R, LFE
Sampling rate : 48.0 KHz
Bit depth : 16 bits
Compression mode : Lossy
Stream size : 17.8 MiB (3%)
Title : ac3 5.1
Language : English
Default : Yes
Forced : No

Menu
00:00:00.000 : en:(01)00:00:00:000
00:03:54.442 : en:(02)00:03:54:442

Source :
A/V -Michael Jackson This Is It 3D *2009* BD3D

====================================================

PODOBNE TORRENTY
LG Demo 3D (march 2012)(48FPS)[mini-HD.1080p.3D.Half.Over-Under.AC3.BluRay.x264-LEON 345] San Andreas 3D*2015*(48FPS)[1080p.3D.Half.Over-Under.DTS 5.1.BluRay.x264-LEON 345] [Lektor i napisy PL] Samsung Demo Disc 3D *2010*(48FPS)[mini-HD.1080p.3D.Half.Over-Under.AC3.BluRay.x264-LEON 345] Jurassic World 3D *2015* (48FPS) [1080p.3D.Half.Over-Under.DTS-HD MA.7.1.AC3.BluRay.x264-LEON 345] [Lektor i napisy PL] Samsung Demo Disc 3D *2011*(48FPS)[mini-HD.1080p.3D.Half.Over-Under.AC3.BluRay.x264-LEON 345] Terminator: Genisys 3D *2015*(48FPS)[1080p.3D.Half.Over-Under.DTS 5.1.BluRay.x264-LEON 345] [Lektor i napisy PL]
Szczegóły torrenta
TRACKER
Tracker Podstawowy: http://tracker.torrenty.org:6969/announce

Multitrackery:

http://tracker.torrenty.org:6969/announce
http://tracker.verakosmetik.com:8089/announce
http://exodus.desync.com:6969/announce
http://94.228.192.98/announce
udp://9.rarbg.com:2710/announce
udp://tracker.prq.to:80/announce
udp://tracker.openbittorrent.com:80/announce

UAKTUALNIENIE
19/01/2019 14:22:04 (Jeśeli nie widac seeda kliknij na [uaktualnij] by odswieżyć statystyki).
[Lub sprawdź programem do pobierania torrentów, ponieważ niektóre trackery nie wyświetlają statystyk]
4 pliki
 
KOMENTARZE


Brak komentarzy...

DODAJ KOMENTARZ

Zaloguj się aby dodawać komentarze !!!



Wstecz








WRÓĆ NA GÓRĘ Brand New Original OnePlus 5 Mobile phone 4G LTE 5.5''Snapdragon 835 Octa Core 6GB 64GB 20.0MP 16.0MP NFC Fingerprint Smartphone | download Backstabbing For Beginners (2018) x264 | blank face